Bookmarks Learn to play Thin Lizzy with Jamie Humphries

Learn to play Thin Lizzy with Jamie Humphries
Name:
Learn to play Thin Lizzy with Jamie Humphries
Rating:
Users voted:
Language:
Learn to play Thin Lizzy with Jamie Humphries
Learn to play Thin Lizzy with Jamie Humphries
DVDRip | English | AVI | 576 x 384 | XviD ~611 kbps | 25 fps
MP3 80 Kbps 48.0 KHz | 1 channel | 02:41:38 | 828.8 MB
Genre: eLearning Video / Guitar lesson


This excellent DVD set will teach you note for note the riffs and solos that defined this hugely popular Thin Lizzy lineup! Tracks include:
Don't Believe A Word

Intro, Verse & Chorus (9:17)
Solo & Coda Sections (10:24)
Performance (2:23)

The Boys Are Back In Town

Intro, Verse, Chorus & Melody (12:18)
Middle 8 & Solo (7:57)
Performance (4:49)

Whisky In The Jar

Intro (5:31)
Verse & Chorus (6:14)
Lead Melody & Solo (10:28)
Final Verse & Outro (3:57)
Performance (5:53)

Still In Love With You

Intro & 1st Verse (8:02)
2nd Verse (6:18)
1st Solo (17:41)
Final Verse & 2nd Solo (21:57)
Performance (7:41)

Dancing In The Moonlight

Intro, Verse, Chorus & Middle 8 (8:10)
Solo (7:48)
Performance (3:31)


General
Complete name : 03_-_Lead_Melody_&_Solo.avi
Format : AVI
Format/Info : Audio Video Interleave
File size : 52.2 MiB
Duration : 10 min 28 s
Overall bit rate : 697 kb/s
Writing library : VirtualDubMod build 2439/release

Video
ID : 0
Format : MPEG-4 Visual
Format profile : Advanced [email protected]
Format settings : BVOP1
Format settings, BVOP : 1
Format settings, QPel : No
Format settings, GMC : No warppoints
Format settings, Matrix : Default (MPEG)
Codec ID : XVID
Codec ID/Hint : XviD
Duration : 10 min 28 s
Bit rate : 611 kb/s
Width : 576 pixels
Height : 384 pixels
Display aspect ratio : 3:2
Frame rate : 25.000 FPS
Color space : YUV
Chroma subsampling : 4:2:0
Bit depth : 8 bits
Scan type : Progressive
Compression mode : Lossy
Bits/(Pixel*Frame) : 0.111
Stream size : 45.8 MiB (88%)
Writing library : XviD 1.2.1 (UTC 2008-12-04)

Audio
ID : 1
Format : MPEG Audio
Format version : Version 1
Format profile : Layer 3
Codec ID : 55
Codec ID/Hint : MP3
Duration : 10 min 28 s
Bit rate mode : Constant
Bit rate : 80.0 kb/s
Channel(s) : 1 channel
Sampling rate : 48.0 kHz
Frame rate : 41.667 FPS (1152 SPF)
Compression mode : Lossy
Stream size : 5.99 MiB (11%)
Alignment : Aligned on interleaves
Interleave, duration : 200 ms (5.00 video frames)
Interleave, preload duration : 504 ms
Writing library : LAME3.98r
Encoding settings : -m m -V 4 -q 3 -lowpass 20.3 -b 80


Learn to play Thin Lizzy with Jamie Humphries

Download link:

Download Via Rapidgator.net
https://rapidgator.net/file/56792b3809c755fae97713a3b6092735/vwsbj.Learn.to.play.Thin.Lizzy.with.Jamie.Humphries.part1.rar.html
https://rapidgator.net/file/fe81e25474427d9a80cb0f2bdc2edf07/vwsbj.Learn.to.play.Thin.Lizzy.with.Jamie.Humphries.part2.rar.html
https://rapidgator.net/file/20e61112156f70bb8397666e43fbd388/vwsbj.Learn.to.play.Thin.Lizzy.with.Jamie.Humphries.part3.rar.html
https://rapidgator.net/file/12db7c611a6c9fd285e4356f050dd8ee/vwsbj.Learn.to.play.Thin.Lizzy.with.Jamie.Humphries.part4.rar.html
https://rapidgator.net/file/7ae0da4631bbf8e3c82c8f8900a9a07e/vwsbj.Learn.to.play.Thin.Lizzy.with.Jamie.Humphries.part5.rar.html

Download Via Turbobit.net
https://turbobit.net/gn9gb60oym7s/vwsbj.Learn.to.play.Thin.Lizzy.with.Jamie.Humphries.part1.rar.html
https://turbobit.net/kdw56s9lzgtb/vwsbj.Learn.to.play.Thin.Lizzy.with.Jamie.Humphries.part2.rar.html
https://turbobit.net/mlri27j1sxu5/vwsbj.Learn.to.play.Thin.Lizzy.with.Jamie.Humphries.part3.rar.html
https://turbobit.net/ij955xmmdaf7/vwsbj.Learn.to.play.Thin.Lizzy.with.Jamie.Humphries.part4.rar.html
https://turbobit.net/ltvkehmmvol5/vwsbj.Learn.to.play.Thin.Lizzy.with.Jamie.Humphries.part5.rar.html

Download Via Uploadgig.com
https://uploadgig.com/file/download/c030b26b35eaA380/vwsbj.Learn.to.play.Thin.Lizzy.with.Jamie.Humphries.part1.rar
https://uploadgig.com/file/download/4Fe875b8D73005Ae/vwsbj.Learn.to.play.Thin.Lizzy.with.Jamie.Humphries.part2.rar
https://uploadgig.com/file/download/66A3555b803faF33/vwsbj.Learn.to.play.Thin.Lizzy.with.Jamie.Humphries.part3.rar
https://uploadgig.com/file/download/067650ce0a33C8D3/vwsbj.Learn.to.play.Thin.Lizzy.with.Jamie.Humphries.part4.rar
https://uploadgig.com/file/download/03842F34da2038C4/vwsbj.Learn.to.play.Thin.Lizzy.with.Jamie.Humphries.part5.rar

Links are Interchangeable - No Password - Single Extraction

Also you may like

TANK-SU76

DVD Users voted: 0 | Views: 42

Graphics

  • 0