Bookmarks Hands On Cubase Vol. 3 - Audio Essentials

Hands On Cubase Vol. 3 - Audio Essentials
Name:
Hands On Cubase Vol. 3 - Audio Essentials
Rating:
Users voted:
Language:
Hands On Cubase Vol. 3 - Audio Essentials
Hands On Cubase Vol. 3 - Audio Essentials
DVD9 | German | VIDEO_TS | 720 x 576 | AVC ~3000 kbps | 25 fps
MPEG Audio 192 Kbps 48.0 KHz | 2 channels | ~2 hour | 7.43 GB
Genre: eLearning Video / Sound Processing, Music Production


Mit Hands On Cubase Vol.3 - Audio Essentials steht Ihren eigenen, erfolgreichen Recording-Sessions mit Cubase nichts mehr im Wege !!
Themenschwerpunkt der dritten Cubase Lern-DVD sind die umfangreichen Audiofeatures von Steinberg Cubase (SX/SL, Nuendo). Diese DVD macht Sie auf anschauliche Art und Weise mit allen notwendigen Funktionen zur Bearbeitung von Audiomaterial jeglicher Art von Grund auf vertraut. Dabei werden sowohl die Möglichkeiten der Audioaufnahme, des Audioimportes und der Audiobearbeitung ausführlich behandelt. In diesem Zusammenhang kommen auch Beschreibungen zu Signal-Routing, den zugehörigen Mixerfunktionen und wichtige Hintergrundinformationen nicht zu kurz.

Features:
* Grundlagen zum Arbeiten mit Audiomaterial
* Import und Anpassung von Fremdmaterial
* Arbeiten mit dem Cubase Pool
* Audioeffekte in der Anwendung
* Die Cubase Audiofunktionen im Detail
* Manuelles- und Auto- Audiocrossfade
* Arbeiten mit der Audiohüllkurve
* Echtzeit Audioeffekte
* Arbeiten mit Slices und Hitpoints
* Der Sample-Editor im Detail
* Arbeiten mit Sample-Regionen
* Dynamisches Timewarp (Warp-Anker)
* Einrichten der VST- und Audioverbindungen
* Anlegen von Projektvorlagen
* Der Cubase Mixer im Detail
* Archivieren von Spuren und Projekten
* Die Möglichkeit der Audioaufnahme im Detail
* Viele weitere Tipps und Tricks aus der Praxis
* Gesamtlaufzeit: über 5 Stunden
* Vorraussetzung: PC, Mac oder TV mit DVD Abspieler

also You can find my other last: Sound Processing-posts



General
Complete name :VTS_01_6.VOB
Format : MPEG-PS
File size : 977 MiB
Duration : 1 min 26 s
Overall bit rate mode : Constant
Overall bit rate : 95.0 Mb/s

Video
ID : 224 (0xE0)
Format : MPEG Video
Format version : Version 2
Format profile : [email protected]
Format settings : CustomMatrix / BVOP
Format settings, BVOP : Yes
Format settings, Matrix : Custom
Format settings, GOP : M=3, N=15
Format settings, picture structure : Frame
Duration : 1 min 26 s
Bit rate mode : Constant
Bit rate : 92.9 Mb/s
Maximum bit rate : 3 000 kb/s
Width : 720 pixels
Height : 576 pixels
Display aspect ratio : 4:3
Frame rate : 25.000 FPS
Standard : PAL
Color space : YUV
Chroma subsampling : 4:2:0
Bit depth : 8 bits
Scan type : Interlaced
Scan order : Top Field First
Compression mode : Lossy
Bits/(Pixel*Frame) : 8.965
Time code of first frame : 00:01:39:19
Time code source : Group of pictures header
GOP, Open/Closed : Open
Stream size : 955 MiB (98%)

Audio
ID : 192 (0xC0)
Format : MPEG Audio
Format version : Version 1
Format profile : Layer 2
Duration : 1 min 26 s
Bit rate mode : Constant
Bit rate : 192 kb/s
Channel(s) : 2 channels
Sampling rate : 48.0 kHz
Frame rate : 41.667 FPS (1152 SPF)
Compression mode : Lossy
Delay relative to video : -144 ms
Stream size : 1.97 MiB (0%)

Menu


Hands On Cubase Vol. 3 - Audio Essentials

Download link:

Download From Rapidgator.net
https://rapidgator.net/file/1d3441debcac79eb0c9aef524d2800be/dnd9h.Hands.On.Cubase.Vol..3..Audio.Essentials.part1.rar.html
https://rapidgator.net/file/4591a7750cbf470cfd8247d3a3777d3f/dnd9h.Hands.On.Cubase.Vol..3..Audio.Essentials.part2.rar.html
https://rapidgator.net/file/1f33ccbcb97ff8bdd9a1aa4c31ebbb2e/dnd9h.Hands.On.Cubase.Vol..3..Audio.Essentials.part3.rar.html
https://rapidgator.net/file/e406c0c44d1ac1f88b71b63170143217/dnd9h.Hands.On.Cubase.Vol..3..Audio.Essentials.part4.rar.html
https://rapidgator.net/file/fc87d3fe12ed4860943b2ae6253ac60e/dnd9h.Hands.On.Cubase.Vol..3..Audio.Essentials.part5.rar.html
https://rapidgator.net/file/b41954568100fbc85fd0060eca14bf20/dnd9h.Hands.On.Cubase.Vol..3..Audio.Essentials.part6.rar.html
https://rapidgator.net/file/e9cb43fa0aa17a8ea5b41cb9fb3d047f/dnd9h.Hands.On.Cubase.Vol..3..Audio.Essentials.part7.rar.html
https://rapidgator.net/file/8b842e4abcea0b832dd92ec60fd5bbce/dnd9h.Hands.On.Cubase.Vol..3..Audio.Essentials.part8.rar.html

Download From Nitroflare.com
http://nitroflare.com/view/03ABC48427D49A2/dnd9h.Hands.On.Cubase.Vol..3..Audio.Essentials.part1.rar
http://nitroflare.com/view/7C0BD9A8F578611/dnd9h.Hands.On.Cubase.Vol..3..Audio.Essentials.part2.rar
http://nitroflare.com/view/21D5B9F7F44246E/dnd9h.Hands.On.Cubase.Vol..3..Audio.Essentials.part3.rar
http://nitroflare.com/view/D87F2C871EFC6C8/dnd9h.Hands.On.Cubase.Vol..3..Audio.Essentials.part4.rar
http://nitroflare.com/view/0B2F31D04D158EC/dnd9h.Hands.On.Cubase.Vol..3..Audio.Essentials.part5.rar
http://nitroflare.com/view/D2ABFCD71F2CD7D/dnd9h.Hands.On.Cubase.Vol..3..Audio.Essentials.part6.rar
http://nitroflare.com/view/FD0119DE92C0B41/dnd9h.Hands.On.Cubase.Vol..3..Audio.Essentials.part7.rar
http://nitroflare.com/view/574B3FACB37CD86/dnd9h.Hands.On.Cubase.Vol..3..Audio.Essentials.part8.rar

Links are Interchangeable - No Password - Single Extraction